+ goingplaceswithleslie.com »  :::: Bollywood Zone » Bollywood Movies (Original Rips) » Bollywood Movies (1945-2000)
|- Sirf Tum (1999) - 12mbps 1080p Edited WEBHD (Lovepreet1) DUS - 10.78 GB


TV and Appliances
  • Sirf Tum (1999) - 12mbps 1080p Edited WEBHD (Lovepreet1) DUS - 10.78 GB 5 1
Currently:  

Sirf Tum (1999) - 12mbps 1080p Edited WEBHD (Lovepreet1) DUS - 10.78 GB

0 Members and 1 Guest are viewing this topic.

August 21, 2017, 12:11:26 PM
  • Global Moderator
  • Legend Member
  • *****
  • Topic Author
  • Thank You: 10076
  • Reputation: 2079
  • Activity:
    100%
  • Country: in
  • Posts: 5234
  • Topics: 4319
  • Join Date: Jan 2014
  • ıllıllı ѕмoĸιng ιѕ good ғor нealтн ıllıllı :)
Sirf Tum (1999) - 12mbps 1080p Edited WEBHD (Lovepreet1) DUS - 10.78 GB




:info:

Quote
General
Complete name                            : Sirf Tum (1999) - 12mbps 1080p Edited WEBHD (Lovepreet1) DUS.mp4
Format                                   : MPEG-4
Format profile                           : Base Media
Codec ID                                 : isom (isom/iso2/avc1/mp41)
File size                                : 10.8 GiB
Duration                                 : 2 h 6 min
Overall bit rate mode                    : Variable
Overall bit rate                         : 12.2 Mb/s
Writing application                      : Lavf56.40.101

Video
ID                                       : 1
Format                                   : AVC
Format/Info                              : Advanced Video Codec
Format profile                           : [email protected]
Format settings, CABAC                   : Yes
Format settings, RefFrames               : 4 frames
Codec ID                                 : avc1
Codec ID/Info                            : Advanced Video Coding
Duration                                 : 2 h 6 min
Bit rate                                 : 12.0 Mb/s
Width                                    : 1 920 pixels
Height                                   : 816 pixels
Display aspect ratio                     : 2.35:1
Frame rate mode                          : Constant
Frame rate                               : 25.000 FPS
Color space                              : YUV
Chroma subsampling                       : 4:2:0
Bit depth                                : 8 bits
Scan type                                : Progressive
Bits/(Pixel*Frame)                       : 0.306
Stream size                              : 10.6 GiB (98%)
Writing library                          : x264 core 138

Audio
ID                                       : 2
Format                                   : AAC
Format/Info                              : Advanced Audio Codec
Format profile                           : LC
Codec ID                                 : 40
Duration                                 : 2 h 6 min
Bit rate mode                            : Variable
Bit rate                                 : 192 kb/s
Maximum bit rate                         : 198 kb/s
Channel(s)                               : 2 channels
Channel positions                        : Front: L R
Sampling rate                            : 48.0 kHz
Frame rate                               : 46.875 FPS (1024 SPF)
Compression mode                         : Lossy
Stream size                              : 174 MiB (2%)
Default                                  : Yes
Alternate group                          : 1

:ss:











:download:

Quote








Don't walk as you are king, walk as you don't care who the king is....!!
Never argue with an idiot. They drag you down to their level and then beat you with experience?

Share this topic on FacebookShare this topic on GoogleShare this topic on MySpaceShare this topic on TwitterShare this topic on Yahoo

« Last Edit: August 21, 2017, 12:12:30 PM by Rάήνίјάч1234 »



Don't walk as you are king, walk as you don't care who the king is....!!

Thanks given by:


August 21, 2017, 12:29:39 PM
Reply #1
  • Hot Member
  • ***
  • Thank You: 25
  • Reputation: 8
  • Activity:
    6.4%
  • Country: bd
  • Posts: 601
  • Topics: 12
  • Join Date: Jun 2017
  • ShareSpark Member

August 25, 2017, 12:13:57 AM
Reply #2
  • Elite Forces
  • ****
  • Thank You: 231
  • Reputation: 99
  • Activity:
    8.8%
  • Country: sa
  • Posts: 1150
  • Topics: 116
  • Join Date: Jan 2017
  • ShareSpark Member

December 06, 2017, 11:02:27 PM
Reply #3
  • Newbie
  • **
  • Thank You: 0
  • Reputation: 0
  • Activity:
    0%
  • Country: in
  • Posts: 4
  • Topics: 0
  • Join Date: Dec 2017
  • ShareSpark Member

January 25, 2018, 03:36:43 AM
Reply #4
  • Newbie
  • **
  • Thank You: 0
  • Reputation: 0
  • Activity:
    0%
  • Country: kz
  • Posts: 4
  • Topics: 0
  • Join Date: Mar 2016
  • ShareSpark Member

February 17, 2018, 12:20:59 PM
Reply #5
  • Newbie
  • **
  • Thank You: 0
  • Reputation: 1
  • Activity:
    0%
  • Country: at
  • Posts: 1
  • Topics: 0
  • Join Date: Feb 2018
  • ShareSpark Member
Thanks for sharing.

But all links are dead

Nothing against you, Bhai, but do make sure to upload at reliable & lasting host sites.
** Even though I'm not suggesting MEGA, it is good considering that it has survived. Maybe, you can encrpyt the uploads.

You see your links are dead before even a year has passed. Our Indian content is not that widely available as compared to the ton of Western content, even are torrents die within 6 months (I think that's mainly due to bandwidth restrictions)

So, please do make sure that uploads are available for about 2 years atleast.

I get to know this site during my search for Sirf Tum Soundtracks in higher bitrates, even FLAC; as every song website has got only 128kbps version.Even there are four different torrents for the original soundtrack, they're all f*ckin' dead. See, that's when this website becomes of paramount importance serving Indians worldwide.

August 30, 2018, 09:48:45 PM
Reply #6
  • Semi Newbie
  • **
  • Thank You: 0
  • Reputation: 0
  • Activity:
    2.6%
  • Country: in
  • Posts: 14
  • Topics: 0
  • Join Date: Jun 2017
  • ShareSpark Member

September 07, 2018, 12:33:53 PM
Reply #7
  • Begginer
  • **
  • Thank You: 0
  • Reputation: 0
  • Activity:
    12.4%
  • Country: pk
  • Posts: 52
  • Topics: 0
  • Join Date: Feb 2017
  • ShareSpark Member

September 08, 2018, 11:18:09 PM
Reply #8
  • Senior Member
  • ***
  • Thank You: 0
  • Reputation: 0
  • Activity:
    3.6%
  • Posts: 242
  • Topics: 3
  • Join Date: Oct 2013
  • ShareSpark Member

September 09, 2018, 10:27:45 AM
Reply #9
  • Semi Newbie
  • **
  • Thank You: 0
  • Reputation: 0
  • Activity:
    0.2%
  • Posts: 6
  • Topics: 5
  • Join Date: Dec 2012
  • ShareSpark Member

Tags:
 

Related Topics

  Subject / Started by Replies Last post
0 Replies
967 Views
Last post August 24, 2017, 11:26:51 AM
by Rάήνίјάч1234
1 Replies
914 Views
Last post October 23, 2017, 08:41:31 PM
by PSYCHO
1 Replies
1027 Views
Last post October 30, 2017, 11:35:26 PM
by cool dude
0 Replies
501 Views
Last post April 12, 2018, 04:22:31 PM
by Rάήνίјάч1234
1 Replies
715 Views
Last post August 06, 2018, 10:26:42 AM
by movieworm




Back to top
Sitemap